wklejto.pl

Dodane przez: ~Anonim (2011-09-29 21:18) -> text
1.
2.
3.
4.
5.
6.
nput #0, mpeg, from 'VTS_01_1.VOB':
  Duration: 00:45:35.00, start: 0.049756, bitrate: 3140 kb/s
    Stream #0.0[0x1e0]: Video: mpeg2video, yuv420p, 720x576 [PAR 64:45 DAR 16:9], 9800 kb/s, 25 fps, 25 tbr, 90k tbn, 50 tbc
    Stream #0.1[0x82]: Audio: ac3, 48000 Hz, 5.1, s16, 448 kb/s
Incorrect frame size
 
Wygenerowano w 0.002s, przy pomocy GeSHi 1.0.8
'
Podziel się na Facebook Podziel się na BLIP Podziel się na Twitter Podziel się na Buzz Podziel się na Flaker Dodaj zakładkę Google Podziel się na Delicious Wykop to!

Nowy Komentarz:

Komentarze:

Brak Komentarzy!